Watch Movie
31-03-2018, 13:56
Loading...
Loading...
Loading...

12 Strong 2018 720p WEBRip x264 AAC LLG

Seeders: 1
Leechers: n/a
Completed: n/a

Age: 51 seconds    Visits: 0    Category: Movies    Size: 937.3 MB

Posted by: LifeLongg    Comments: Read Comments

Info Hash: 5865E47193ABA3F00269F7C1BF07B5573D4FCBAF



Now You Can Download Torrents From Kat.cr, Kickasstorrent Very Easily



Torrent Description







******************************Thumbnail:**********************



******************************Screenshots:********************

Screenshot 1

Screenshot 2

Screenshot 3

Screenshot 4

Screenshot 5

Screenshot 6

Screenshot 7

Screenshot 8

Screenshot 9

Screenshot 0

**************************************************************

Complete name : 12.Strong.2018.720p.WEBRip.x264.AAC.LLG.mp4
Format : MPEG-4
Format profile : Base Media
Codec ID : isom (isom/iso2/avc1/mp41)
File size : 930 MiB
Duration : 2 h 9 min
Overall bit rate : 1 001 kb/s
Writing application : Lavf57.56.101

Video
ID : 1
Format : AVC
Format/Info : Advanced Video Codec
Format profile : [email protected]
Format settings : CABAC / 4 Ref Frames
Format settings, CABAC : Yes
Format settings, RefFrames : 4 frames
Codec ID : avc1
Codec ID/Info : Advanced Video Coding
Duration : 2 h 9 min
Bit rate : 900 kb/s
Width : 1 280 pixels
Height : 534 pixels
Display aspect ratio : 2.40:1
Original display aspect ratio : 2.40:1
Frame rate mode : Constant
Frame rate : 23.976 (23976/1000) FPS
Color space : YUV
Chroma subsampling : 4:2:0
Bit depth : 8 bits
Scan type : Progressive
Bits/(Pixel*Frame) : 0.055
Stream size : 804 MiB (87%)

Audio
ID : 2
Format : AAC
Format/Info : Advanced Audio Codec
Format profile : LC
Codec ID : mp4a-40-2
Duration : 2 h 9 min
Duration_LastFrame : -16 ms
Bit rate mode : Constant
Bit rate : 129 kb/s
Channel(s) : 2 channels
Channel positions : Front: L R
Sampling rate : 48.0 kHz
Frame rate : 46.875 FPS (1024 SPF)
Compression mode : Lossy
Stream size : 120 MiB (13%)
Default : Yes
Alternate group : 1





Recently Added Torrents in Movies

Trackers List

tracker name
udp://tracker.opentrackr.org:1337/announce
udp://tracker.leechers-paradise.org:6969/announce
udp://tracker.pirateparty.gr:6969/announce
udp://tracker.coppersurfer.tk:6969/announce
udp://tracker.mg64.net:2710/announce
udp://tracker.zer0day.to:1337/announce

Sharing Widget


Download torrent
937.3 MB
Seeders: 1
Leechers: n/a
12 Strong 2018 720p WEBRip x264 AAC LLG