Wallpapers
poele como rika prix
Loading...
Loading...
Loading...

Baaghi 2 (2018) Hindi 1080p Proper HDRip x264 AAC 1 4GB[MovCR]

Seeders: 2
Leechers: 23
Completed: 1

Age: 3 minutes    Visits: 4    Category: Movies    Size: 1.5 GB

Posted by: ictv    Comments: Read Comments

Info Hash: DF42F6CD01D14B644706FB8BF4E01916967C0F1A



Now You Can Download Torrents From Kat.cr, Kickasstorrent Very Easily



Torrent Description



Visit www.movcr.com

Baaghi 2 (2018) Hindi 1080p Proper HDRip x264 AAC 1.4GB[MovCR]

http://www.imdb.com/title/tt6843812/



General
Complete name : [www.MovCR.com] Baaghi 2 (2018) Hindi 1080p Proper HDRip x264 AAC 1.4GB[MovCR]\www.MovCR.com - Baaghi 2 (2018) Hindi 1080p Proper HDRip x264 AAC 1.4GB[MovCR].mkv
Format : Matroska
Format version : Version 4 / Version 2
File size : 1.45 GiB
Duration : 2 h 21 min
Overall bit rate : 1 463 kb/s
Movie name : www.MovCR.com
Encoded date : UTC 2018-04-17 10:23:37
Writing application : mkvmerge v9.5.0 ('Quiet Fire') 64bit
Writing library : libebml v1.3.4 + libmatroska v1.4.5

Video
ID : 1
Format : AVC
Format/Info : Advanced Video Codec
Format profile : [email protected]
Format settings : CABAC / 4 Ref Frames
Format settings, CABAC : Yes
Format settings, RefFrames : 4 frames
Codec ID : V_MPEG4/ISO/AVC
Duration : 2 h 21 min
Bit rate : 1 286 kb/s
Width : 1 920 pixels
Height : 1 080 pixels
Display aspect ratio : 16:9
Frame rate mode : Constant
Frame rate : 29.970 (30000/1001) FPS
Color space : YUV
Chroma subsampling : 4:2:0
Bit depth : 8 bits
Scan type : Progressive
Bits/(Pixel*Frame) : 0.021
Stream size : 1.25 GiB (87%)
Title : www.MovCR.com
Writing library : x264 core 148 r2708 86b7198
Encoding settings : cabac=1 / ref=1 / deblock=1:0:0 / analyse=0x1:0x111 / me=hex / subme=2 / psy=1 / psy_rd=1.00:0.00 / mixed_ref=0 / me_range=16 / chroma_me=1 / trellis=0 / 8x8dct=0 / cqm=0 / deadzone=21,11 / fast_pskip=1 / chroma_qp_offset=0 / threads=24 / lookahead_threads=8 / sliced_threads=0 / nr=0 / decimate=1 / interlaced=0 / bluray_compat=0 / constrained_intra=0 / bframes=3 / b_pyramid=2 / b_adapt=1 / b_bias=0 / direct=1 / weightb=1 / open_gop=0 / weightp=1 / keyint=300 / keyint_min=30 / scenecut=40 / intra_refresh=0 / rc_lookahead=10 / rc=abr / mbtree=1 / bitrate=1286 / ratetol=1.0 / qcomp=0.60 / qpmin=0 / qpmax=69 / qpstep=4 / vbv_maxrate=20000 / vbv_bufsize=25000 / nal_hrd=none / filler=0 / ip_ratio=1.40 / aq=1:1.00
Default : Yes
Forced : No
Color range : Limited
Color primaries : BT.709
Transfer characteristics : BT.709
Matrix coefficients : BT.709

Audio
ID : 2
Format : AAC
Format/Info : Advanced Audio Codec
Format profile : LC
Codec ID : A_AAC-2
Duration : 2 h 21 min
Bit rate : 192 kb/s
Channel(s) : 2 channels
Channel positions : Front: L R
Sampling rate : 48.0 kHz
Frame rate : 46.875 FPS (1024 SPF)
Compression mode : Lossy
Delay relative to video : -88 ms
Stream size : 195 MiB (13%)
Title : www.MovCR.com
Language : English
Default : Yes
Forced : No














Recently Added Torrents in Movies

Trackers List

tracker name
udp://tracker.opentrackr.org:1337/announce
udp://tracker.leechers-paradise.org:6969/announce
udp://tracker.pirateparty.gr:6969/announce
udp://tracker.coppersurfer.tk:6969/announce
udp://tracker.mg64.net:2710/announce
udp://tracker.zer0day.to:1337/announce

Sharing Widget


Download torrent
1.5 GB
Seeders: 2
Leechers: 23
Baaghi 2 (2018) Hindi 1080p Proper HDRip x264 AAC 1 4GB[MovCR]