The Brave - 1ยช temporada [720p]
Teenage Kicks
Loading...
Loading...
Loading...

Black Panther (2018) New 720p HC HDTC x264 AAC [Dual Audio]-[Hindi(Cleaned)+Eng]-1GB [MovCR]

Seeders: 2
Leechers: 15
Completed: n/a

Age: 3 minutes    Visits: 1    Category: Movies    Size: 1.1 GB

Posted by: ictv    Comments: Read Comments

Info Hash: 613E49004365C879B705A56330B5A725422D0772



Now You Can Download Torrents From Kat.cr, Kickasstorrent Very Easily



Torrent Description



Visit www.movcr.com

Black Panther (2018) New 720p HC HDTC x264 AAC [Dual Audio]-[Hindi(Cleaned)+Eng]-1GB [MovCR]

http://www.imdb.com/title/tt1825683/


Plot :
T'Challa, the King of Wakanda, rises to the throne in the isolated, technologically advanced African nation, but his claim is challenged by a vengeful outsider who was a childhood victim of T'Challa's father's mistake.




General
Unique ID : 229396691049438739016835736628156763904 (0xAC943215B2086087B4ECA5C1CB310F00)
Complete name : [www.MovCR.com] Black Panther (2018) 720p HC HDTC x264 AAC [Dual Audio]-[Hindi(Cleaned)+Eng]-1GB [MovCR]\www.MovCR.com - Black Panther (2018) 720p HC HDTC x264 AAC [Dual Audio]-[Hindi(Cleaned)+Eng]-1GB [MovCR].mkv
Format : Matroska
Format version : Version 4 / Version 2
File size : 1.09 GiB
Duration : 2 h 6 min
Overall bit rate : 1 234 kb/s
Movie name : www.MovCR.com
Encoded date : UTC 2018-04-17 09:55:09
Writing application : mkvmerge v9.5.0 ('Quiet Fire') 64bit
Writing library : libebml v1.3.4 + libmatroska v1.4.5

Video
ID : 1
Format : AVC
Format/Info : Advanced Video Codec
Format profile : [email protected]
Format settings : CABAC / 8 Ref Frames
Format settings, CABAC : Yes
Format settings, RefFrames : 8 frames
Codec ID : V_MPEG4/ISO/AVC
Duration : 2 h 6 min
Bit rate : 1 039 kb/s
Width : 1 280 pixels
Height : 480 pixels
Display aspect ratio : 2.667
Frame rate mode : Constant
Frame rate : 25.000 FPS
Color space : YUV
Chroma subsampling : 4:2:0
Bit depth : 8 bits
Scan type : Progressive
Bits/(Pixel*Frame) : 0.068
Stream size : 942 MiB (84%)
Title : www.MovCR.com
Writing library : x264 core 148 r2708 86b7198
Encoding settings : cabac=1 / ref=8 / deblock=1:0:0 / analyse=0x3:0x133 / me=umh / subme=9 / psy=1 / psy_rd=1.00:0.00 / mixed_ref=1 / me_range=16 / chroma_me=1 / trellis=2 / 8x8dct=1 / cqm=0 / deadzone=21,11 / fast_pskip=1 / chroma_qp_offset=-2 / threads=15 / lookahead_threads=1 / sliced_threads=0 / nr=0 / decimate=1 / interlaced=0 / bluray_compat=0 / constrained_intra=0 / bframes=3 / b_pyramid=2 / b_adapt=2 / b_bias=0 / direct=3 / weightb=1 / open_gop=0 / weightp=2 / keyint=250 / keyint_min=25 / scenecut=40 / intra_refresh=0 / rc_lookahead=60 / rc=2pass / mbtree=1 / bitrate=1039 / ratetol=1.0 / qcomp=0.60 / qpmin=0 / qpmax=69 / qpstep=4 / cplxblur=20.0 / qblur=0.5 / vbv_maxrate=62500 / vbv_bufsize=78125 / nal_hrd=none / filler=0 / ip_ratio=1.40 / aq=1:1.00
Default : Yes
Forced : No
Color range : Limited
Color primaries : BT.709
Transfer characteristics : BT.709
Matrix coefficients : BT.709

Audio #1
ID : 2
Format : AAC
Format/Info : Advanced Audio Codec
Format profile : LC
Codec ID : A_AAC-2
Duration : 2 h 6 min
Bit rate : 128 kb/s
Channel(s) : 2 channels
Channel positions : Front: L R
Sampling rate : 44.1 kHz
Frame rate : 43.066 FPS (1024 SPF)
Compression mode : Lossy
Stream size : 116 MiB (10%)
Title : www.MovCR.com
Language : Hindi
Default : Yes
Forced : Yes

Audio #2
ID : 3
Format : AAC
Format/Info : Advanced Audio Codec
Format profile : HE-AAC / LC
Format settings : Explicit
Codec ID : A_AAC-2
Duration : 2 h 6 min
Bit rate : 64.0 kb/s
Channel(s) : 2 channels
Channel positions : Front: L R
Sampling rate : 48.0 kHz / 24.0 kHz
Frame rate : 23.438 FPS (1024 SPF)
Compression mode : Lossy
Delay relative to video : 31 ms
Stream size : 58.0 MiB (5%)
Title : www.MovCR.com
Language : English
Default : No
Forced : No














Recently Added Torrents in Movies

Trackers List

tracker name
udp://tracker.opentrackr.org:1337/announce
udp://tracker.leechers-paradise.org:6969/announce
udp://tracker.pirateparty.gr:6969/announce
udp://tracker.coppersurfer.tk:6969/announce
udp://tracker.mg64.net:2710/announce
udp://tracker.zer0day.to:1337/announce

Sharing Widget


Download torrent
1.1 GB
Seeders: 2
Leechers: 15
Black Panther (2018) New 720p HC HDTC x264 AAC [Dual Audio]-[Hindi(Cleaned)+Eng]-1GB [MovCR]