Hulk and the Agents of S.M.A.S.H.
Несмотря ни на что / Mein Blind Date mit dem Leben (2017) date_range2017 / Германия star7.308
Loading...
Loading...
Loading...

Mercur S01 E01 - 720p x264 - DAN (ENG SUBS) [BRSHNKV]

Seeders: 2
Leechers: 1
Completed: n/a

Age: 5 minutes    Visits: 2    Category: TV    Size: 502.6 MB

Posted by: Baryshnikov    Comments: Read Comments

Info Hash: 37EDD66363138564C5457FF4C0A83D011FE6C9B8



Now You Can Download Torrents From Kat.cr, Kickasstorrent Very Easily



Torrent Description



Inspired by real events, Something's Rockin' tells the fascinating story of the rise and fall of "Radio Mercur", a pirate radio station founded by a small group of music-loving dreamers in the late fifties.






Tech:

Format : MPEG-4
Format profile : Base Media / Version 2
Codec ID : mp42
File size : 503 MiB
Duration : 42mn 6s
Overall bit rate mode : Variable
Overall bit rate : 1 669 Kbps
Movie name : Mercur S01 E01 - x264 [BRSHNKV]
Encoded date : UTC 2018-04-14 09:24:28
Tagged date : UTC 2018-04-14 09:24:28
Writing application : HandBrake 1.0.2 2017012200

Video
ID : 1
Format : AVC
Format/Info : Advanced Video Codec
Format profile : [email protected]
Format settings, CABAC : Yes
Format settings, ReFrames : 14 frames
Codec ID : avc1
Codec ID/Info : Advanced Video Coding
Duration : 42mn 6s
Bit rate : 1 500 Kbps
Width : 1 024 pixels
Height : 576 pixels
Display aspect ratio : 16:9
Frame rate mode : Constant
Frame rate : 25.000 fps
Color space : YUV
Chroma subsampling : 4:2:0
Bit depth : 8 bits
Scan type : Progressive
Bits/(Pixel*Frame) : 0.102
Stream size : 452 MiB (90%)
Writing library : x264 core 148 r2708 86b7198
Encoded date : UTC 2018-04-14 09:24:28
Tagged date : UTC 2018-04-14 09:24:28
Color range : Limited
Color primaries : BT.601 PAL
Transfer characteristics : BT.709
Matrix coefficients : BT.601

Audio
ID : 2
Format : AAC
Format/Info : Advanced Audio Codec
Format profile : LC
Codec ID : 40
Duration : 42mn 6s
Bit rate mode : Variable
Bit rate : 163 Kbps
Channel(s) : 2 channels
Channel positions : Front: L R
Sampling rate : 48.0 KHz
Compression mode : Lossy
Stream size : 49.1 MiB (10%)
Title : Stereo / Stereo
Language : Danish
Encoded date : UTC 2018-04-14 09:24:28
Tagged date : UTC 2018-04-14 09:24:28





Recently Added Torrents in TV

Trackers List

tracker name
udp://tracker.opentrackr.org:1337/announce
udp://tracker.leechers-paradise.org:6969/announce
udp://tracker.pirateparty.gr:6969/announce
udp://tracker.coppersurfer.tk:6969/announce
udp://tracker.mg64.net:2710/announce
udp://tracker.zer0day.to:1337/announce

Sharing Widget


Download torrent
502.6 MB
Seeders: 2
Leechers: 1
Mercur S01 E01 - 720p x264 - DAN (ENG SUBS) [BRSHNKV]