1920 London (2016)
Bangladesh
Loading...
Loading...
Loading...

Not Cinderellas Type 2018 HDRip x264 AAC [MW]

Seeders: 1
Leechers: 8
Completed: 1

Age: 44 minutes    Visits: 3    Category: Movies    Size: 759.1 MB

Posted by: moviezworldz    Comments: Read Comments

Info Hash: C04B94824BC34CF928E3B074FE9432758ACA31CD



Now You Can Download Torrents From Kat.cr, Kickasstorrent Very Easily



Torrent Description








General
Format : Matroska
Format version : Version 4 / Version 2
File size : 759 MiB
Duration : 1 h 37 min
Overall bit rate : 1 094 kb/s

Video
ID : 1
Format : AVC
Format/Info : Advanced Video Codec
Format profile : [email protected]
Format settings : CABAC / 4 Ref Frames
Format settings, CABAC : Yes
Format settings, RefFrames : 4 frames
Codec ID : V_MPEG4/ISO/AVC
Duration : 1 h 37 min
Bit rate : 1 000 kb/s
Width : 720 pixels
Height : 400 pixels
Display aspect ratio : 16:9
Frame rate mode : Constant
Frame rate : 23.976 (24000/1001) FPS
Color space : YUV
Chroma subsampling : 4:2:0
Bit depth : 8 bits
Scan type : Progressive
Bits/(Pixel*Frame) : 0.145
Stream size : 692 MiB (91%)
Writing library : x264 core 155 r2893 b00bcaf
Default : Yes
Forced : No

Audio
ID : 2
Format : AAC
Format/Info : Advanced Audio Codec
Format profile : HE-AAC / LC
Format settings : Explicit
Codec ID : A_AAC-2
Duration : 1 h 37 min
Bit rate : 96.0 kb/s
Channel(s) : 2 channels
Channel positions : Front: L R
Sampling rate : 48.0 kHz / 24.0 kHz
Frame rate : 23.438 FPS (1024 SPF)
Compression mode : Lossy
Stream size : 65.7 MiB (9%)
Default : Yes
Forced : No















Recently Added Torrents in Movies

Trackers List

tracker name
udp://tracker.opentrackr.org:1337/announce
udp://tracker.leechers-paradise.org:6969/announce
udp://tracker.pirateparty.gr:6969/announce
udp://tracker.coppersurfer.tk:6969/announce
udp://tracker.mg64.net:2710/announce
udp://tracker.zer0day.to:1337/announce

Sharing Widget


Download torrent
759.1 MB
Seeders: 1
Leechers: 8
Not Cinderellas Type 2018 HDRip x264 AAC [MW]