Hulk and the Agents of S.M.A.S.H.
Несмотря ни на что / Mein Blind Date mit dem Leben (2017) date_range2017 / Германия star7.308
Loading...
Loading...
Loading...

Winchester 2018 720p WEB-DL x264 [MW]

Seeders: 2
Leechers: 2
Completed: 1

Age: 1 minute    Visits: 0    Category: Movies    Size: 795.0 MB

Posted by: moviezworldz    Comments: Read Comments

Info Hash: 81D7FE45A544674B82C6A2AC5B557D187D342A63



Now You Can Download Torrents From Kat.cr, Kickasstorrent Very Easily



Torrent Description







General
Format : Matroska
Format version : Version 4 / Version 2
File size : 795 MiB
Duration : 1 h 39 min
Overall bit rate : 1 117 kb/s

Video
ID : 1
Format : AVC
Format/Info : Advanced Video Codec
Format profile : [email protected]
Format settings : CABAC / 4 Ref Frames
Format settings, CABAC : Yes
Format settings, RefFrames : 4 frames
Codec ID : V_MPEG4/ISO/AVC
Duration : 1 h 39 min
Bit rate : 1 000 kb/s
Width : 1 280 pixels
Height : 532 pixels
Display aspect ratio : 2.40:1
Frame rate mode : Constant
Frame rate : 23.976 (24000/1001) FPS
Color space : YUV
Chroma subsampling : 4:2:0
Bit depth : 8 bits
Scan type : Progressive
Bits/(Pixel*Frame) : 0.061
Stream size : 704 MiB (88%)
Writing library : x264 core 155 r2893 b00bcaf
Default : Yes
Forced : No

Audio
ID : 2
Format : AAC
Format/Info : Advanced Audio Codec
Format profile : HE-AAC / LC
Format settings : Explicit
Codec ID : A_AAC-2
Duration : 1 h 39 min
Bit rate : 127 kb/s
Channel(s) : 2 channels
Channel positions : Front: L R
Sampling rate : 48.0 kHz / 24.0 kHz
Frame rate : 23.438 FPS (1024 SPF)
Compression mode : Lossy
Stream size : 90.2 MiB (11%)
Default : Yes
Forced : No

Menu
00:00:00.000 : en:1
00:01:14.992 : en:2
00:10:02.018 : en:3
00:20:34.984 : en:4
00:30:57.022 : en:5
00:41:11.010 : en:6
00:51:04.019 : en:7
01:01:50.999 : en:8
01:11:17.982 : en:9
01:18:37.963 : en:10
01:30:53.990 : en:11

















Recently Added Torrents in Movies

Trackers List

tracker name
udp://tracker.opentrackr.org:1337/announce
udp://tracker.leechers-paradise.org:6969/announce
udp://tracker.pirateparty.gr:6969/announce
udp://tracker.coppersurfer.tk:6969/announce
udp://tracker.mg64.net:2710/announce
udp://tracker.zer0day.to:1337/announce

Sharing Widget


Download torrent
795.0 MB
Seeders: 2
Leechers: 2
Winchester 2018 720p WEB-DL x264 [MW]