Ali_Alizadeh
Haider Full Movie (2014) DVDRip Watch Online Watch Haider 2014 Hindi DVDRip Free HDTV Online Full Movie You can watch Haider 2014, Haider 2014 Full Movie, Haider Online Full Movie, Haider Hindi Movie Online, Watch Haider 2014, Haider 2014 Online Full Movie, Haider 2014 DvdRip With English Subtitles, Dailymotion, youtube, parts Putlocker, Cloudy, Novamov, MovZap, Videohut Movie: Haider 2014 Directed by: Vishal Bhardwaj Written by: William Shakespeare, Basharat Peer Starring by: Tabu, Shahid Kapoor, Shraddha Kapoor Genres: Crime | Drama | Romance ...
Loading...
Loading...
Loading...

Winchester (2018) English 720p WEB-DL x264 AAC @ KatMaster

Seeders: 9
Leechers: 26
Completed: 8

Age: 1 hour    Visits: 6    Category: Movies    Size: 796.0 MB

Posted by: KatMaster    Comments: Read Comments

Info Hash: 4B113A50364F4F1D63A35811914FCBE0F92E0418



Now You Can Download Torrents From Kat.cr, Kickasstorrent Very Easily



Torrent Description





Code:

[FORMAT]:…………………….[ Matroska
[ENCODER]:…………..[ KatMaster
[THANKS TO]:…………………..[ EtHD






Movie Info:

Genres: Biography, Fantasy, Horror
Directed by: Michael Spierig, Peter Spierig
Writers: Tom Vaughan, Michael Spierig
Stars Cast: Helen Mirren, Sarah Snook, Finn Scicluna-O’Prey
IMDb: http://www.imdb.com/title/tt1072748/
Language: English

Video
ID : 1
Format : AVC
Format/Info : Advanced Video Codec
Format profile : [email protected]
Format settings : CABAC / 4 Ref Frames
Format settings, CABAC : Yes
Format settings, ReFrames : 4 frames
Codec ID : V_MPEG4/ISO/AVC
Duration : 1 h 39 min
Bit rate : 1 000 kb/s
Width : 1 280 pixels
Height : 532 pixels
Display aspect ratio : 2.40:1
Frame rate mode : Constant
Frame rate : 23.976 (24000/1001) FPS
Color space : YUV
Chroma subsampling : 4:2:0
Bit depth : 8 bits
Scan type : Progressive
Bits/(Pixel*Frame) : 0.061
Stream size : 703 MiB (88%)

Audio
ID : 2
Format : AAC
Format/Info : Advanced Audio Codec
Format profile : LC
Codec ID : A_AAC-2
Duration : 1 h 39 min
Bit rate : 128 kb/s
Channel(s) : 2 channels
Channel positions : Front: L R
Sampling rate : 48.0 kHz
Frame rate : 46.875 FPS (1024 SPF)
Compression mode : Lossy
Delay relative to video : -21 ms
Stream size : 91.1 MiB (11%)


Screenshots:









Recently Added Torrents in Movies

Trackers List

tracker name
udp://tracker.opentrackr.org:1337/announce
udp://tracker.leechers-paradise.org:6969/announce
udp://tracker.pirateparty.gr:6969/announce
udp://tracker.coppersurfer.tk:6969/announce
udp://tracker.mg64.net:2710/announce
udp://tracker.zer0day.to:1337/announce

Sharing Widget


Download torrent
796.0 MB
Seeders: 9
Leechers: 26
Winchester (2018) English 720p WEB-DL x264 AAC @ KatMaster